<?xml version="1.0" standalone="no"?>
<!DOCTYPE svg PUBLIC "-//W3C//DTD SVG 1.1//EN" "http://www.w3.org/Graphics/SVG/1.1/DTD/svg11.dtd" >
<svg xmlns="http://www.w3.org/2000/svg" xmlns:xlink="http://www.w3.org/1999/xlink" version="1.1">
<metadata></metadata>
<defs>
<font id="oswaldregular" horiz-adv-x="1007" >
<font-face units-per-em="2048" ascent="1638" descent="-410" />
<missing-glyph horiz-adv-x="468" />
<glyph unicode="&#xfb01;" horiz-adv-x="1005" d="M39 1022v162h141v61q0 184 62.5 268t218.5 84q61 0 119 -8v-164q-35 8 -76 9q-61 0 -83 -34t-22 -118v-98h484v-1184h-219v1022h-265v-1022h-219v1022h-141zM684 1360v229h201v-229h-201z" />
<glyph unicode="&#xfb02;" horiz-adv-x="1054" d="M39 1022v162h141v61q0 117 20.5 198t103.5 139t255 58q147 0 377 -51v-1589h-219v1468q-66 8 -125 9q-90 0 -131 -28t-51.5 -72t-10.5 -128v-65h181v-162h-181v-1022h-219v1022h-141z" />
<glyph horiz-adv-x="0" />
<glyph unicode="&#xd;" horiz-adv-x="468" />
<glyph horiz-adv-x="0" />
<glyph horiz-adv-x="0" />
<glyph unicode=" "  horiz-adv-x="468" />
<glyph unicode="&#x09;" horiz-adv-x="468" />
<glyph unicode="&#xa0;" horiz-adv-x="468" />
<glyph unicode="!" horiz-adv-x="425" d="M102 0v225h222v-225h-222zM102 1659h222l-74 -1305h-78z" />
<glyph unicode="&#x22;" horiz-adv-x="544" d="M41 1151v508h199l-80 -508h-119zM326 1151v508h198l-80 -508h-118z" />
<glyph unicode="#" horiz-adv-x="995" d="M66 594v164h112l29 198h-137v166h159l78 537h219l-77 -537h184l78 537h217l-78 -537h84v-166h-107l-30 -198h131v-164h-154l-86 -594h-219l86 594h-182l-84 -594h-219l84 594h-88zM395 758h185l28 198h-182z" />
<glyph unicode="$" horiz-adv-x="1005" d="M80 465l205 55q10 -160 62 -258t173 -98q90 0 136 50t46 144q0 100 -43 167t-137 153l-278 246q-84 76 -122 160.5t-38 205.5q0 176 99.5 276.5t273.5 106.5v137h71v-137q170 -12 257 -116.5t106 -311.5l-197 -53q-10 141 -53 222t-152 81q-199 0 -198 -182 q0 -74 24.5 -122t83.5 -104l281 -245q109 -100 173.5 -212t64.5 -253q0 -168 -93.5 -271.5t-249.5 -119.5v-144h-69v142q-203 4 -309.5 132t-116.5 349z" />
<glyph unicode="%" horiz-adv-x="1824" d="M74 1163v129q0 188 75.5 283.5t245.5 95.5t246 -92t76 -276v-146q0 -184 -77 -281.5t-245 -97.5q-166 0 -243.5 100.5t-77.5 284.5zM274 1155q0 -98 26 -154.5t95 -56.5q72 0 97.5 57.5t25.5 155.5v146q0 98 -24.5 150t-98.5 52t-97.5 -53t-23.5 -152v-145zM592 0 l457 1661h188l-455 -1661h-190zM1110 375v129q0 186 75 282.5t245 96.5t245.5 -92.5t75.5 -278.5v-143q0 -186 -77 -282.5t-244 -96.5q-320 0 -320 385zM1309 367q0 -98 25.5 -154.5t95.5 -56.5q71 0 96.5 56t25.5 155v147q0 98 -24.5 150.5t-97.5 52.5q-74 0 -97.5 -53.5 t-23.5 -151.5v-145z" />
<glyph unicode="&#x26;" horiz-adv-x="1241" d="M119 354q0 145 64.5 261t176.5 219l-45 84q-66 119 -100.5 205.5t-34.5 183.5q0 166 95.5 266t259.5 100q154 0 253 -83t99 -224q0 -145 -89 -279.5t-223 -263.5l250 -393q59 115 82 332h217q0 -115 -48 -247t-111 -222q29 -37 71.5 -60.5t89.5 -23.5v-225h-28 q-55 0 -101.5 24.5t-75 50t-87.5 84.5q-59 -74 -149.5 -117.5t-207.5 -43.5q-168 0 -263 103t-95 269zM338 354q0 -82 32.5 -136t106.5 -54q125 0 223 123l-254 391q-49 -63 -78.5 -149.5t-29.5 -174.5zM399 1307q0 -86 27 -173t74 -192q69 82 118.5 198.5t49.5 225.5 q0 59 -36 93t-97 34q-70 0 -103 -54.5t-33 -131.5z" />
<glyph unicode="'" horiz-adv-x="260" d="M41 1151v508h199l-80 -508h-119z" />
<glyph unicode="(" horiz-adv-x="610" d="M150 637q0 330 21.5 538.5t108.5 353t269 144.5v-147q-86 -2 -127 -119t-51.5 -285t-10.5 -434v-145q0 -248 11.5 -412t52.5 -272.5t125 -110.5v-145q-182 2 -269 145t-108.5 352t-21.5 537z" />
<glyph unicode=")" horiz-adv-x="532" d="M59 -250q86 2 128 119t52.5 286t10.5 435v143q0 248 -11.5 412t-53.5 272.5t-126 110.5v145q184 0 271.5 -143.5t109 -352t21.5 -536.5q0 -330 -21.5 -538.5t-108.5 -353t-272 -146.5v147z" />
<glyph unicode="*" horiz-adv-x="815" d="M92 1358l53 139l232 -123l-25 283h166l-26 -283l233 123l51 -139l-241 -94l163 -226l-133 -77l-131 256l-133 -256l-129 77l162 228z" />
<glyph unicode="+" horiz-adv-x="849" d="M51 768v166h287v334h164v-334h297v-166h-297v-334h-164v334h-287z" />
<glyph unicode="," horiz-adv-x="382" d="M82 -174q55 18 87 64.5t32 109.5h-117v236h225v-232q0 -109 -47 -173t-145 -99z" />
<glyph unicode="-" horiz-adv-x="657" d="M100 535v165h457v-165h-457z" />
<glyph unicode="." horiz-adv-x="385" d="M100 0v244h219v-244h-219z" />
<glyph unicode="/" horiz-adv-x="755" d="M59 0l447 1659h190l-448 -1659h-189z" />
<glyph unicode="0" horiz-adv-x="1058" d="M119 471v715q0 227 101.5 357t309.5 130q207 0 308.5 -130t101.5 -357v-715q0 -225 -102.5 -357t-307.5 -132q-204 0 -307.5 133t-103.5 356zM340 469q0 -307 190 -307q189 0 189 307v719q0 141 -40 224t-149 83t-149.5 -83t-40.5 -224v-719z" />
<glyph unicode="1" horiz-adv-x="811" d="M61 1313v166q250 59 342 180h166v-1659h-219v1372q-4 -6 -124 -28.5t-165 -30.5z" />
<glyph unicode="2" horiz-adv-x="978" d="M84 0v156l422 657q31 49 41 61q72 115 104.5 191t32.5 182q0 119 -39 182.5t-127 63.5q-197 0 -196 -305v-55h-220v57q0 233 96.5 358t309.5 125q197 0 297 -111.5t100 -316.5q0 -100 -23.5 -179t-56 -136.5t-102.5 -163.5l-381 -582h524v-184h-782z" />
<glyph unicode="3" horiz-adv-x="976" d="M82 408v55h217v-37q4 -127 44 -194.5t144 -67.5q111 0 151 76.5t40 228.5q0 139 -51.5 218t-165.5 87q-8 2 -31 2v219h29q117 4 168 61.5t51 190.5q0 123 -41 185.5t-148 62.5q-106 0 -146 -67.5t-44 -198.5v-35h-217v55q0 203 103.5 313.5t303.5 110.5 q201 0 304.5 -111.5t103.5 -314.5q0 -145 -63.5 -237t-174.5 -125q113 -35 175.5 -141.5t62.5 -274.5q0 -231 -99.5 -359t-310.5 -128q-198 0 -301.5 111.5t-103.5 314.5z" />
<glyph unicode="4" horiz-adv-x="989" d="M82 444v230l432 985h258v-1020h186v-195h-186v-444h-209v444h-481zM293 639h270v754z" />
<glyph unicode="5" horiz-adv-x="974" d="M96 465h219q0 -139 38 -223t149 -84q84 0 125 49t52 130t11 216q0 125 -13 199.5t-53 114.5t-120 40q-63 0 -111.5 -39t-73.5 -98h-186v889h715v-219h-516l-15 -459q88 92 240 92q190 0 271 -130t81 -361q0 -283 -92 -440.5t-319 -157.5q-215 0 -308.5 121.5t-93.5 359.5 z" />
<glyph unicode="6" horiz-adv-x="1030" d="M119 526v559q0 268 94 428t313 160q193 0 297.5 -104.5t108.5 -298.5l2 -25h-221q0 127 -41 187.5t-146 60.5q-188 0 -188 -354v-252q33 53 95.5 83.5t146.5 30.5q195 0 276.5 -123.5t81.5 -355.5q0 -244 -100.5 -392t-311.5 -148q-204 0 -305.5 150.5t-101.5 393.5z M338 475q0 -141 44 -226t144 -85q103 0 147 84t44 221q0 125 -10.5 198.5t-51.5 121t-129 47.5q-63 0 -111 -33t-77 -80v-248z" />
<glyph unicode="7" horiz-adv-x="790" d="M45 1487v172h664v-107l-308 -1552h-211l299 1487h-444z" />
<glyph unicode="8" horiz-adv-x="1021" d="M102 467q0 158 52.5 252t152.5 155q-184 123 -184 371q0 203 96 315.5t293 112.5q195 0 290 -112.5t95 -315.5q0 -133 -47 -222t-137 -149q100 -63 153.5 -157t53.5 -250q0 -233 -96.5 -359t-311.5 -126q-217 0 -313.5 124.5t-96.5 360.5zM311 463q0 -145 44 -226 t157 -81q111 0 154 80.5t43 226.5q0 133 -46.5 217t-150.5 86q-106 -2 -153.5 -86t-47.5 -217zM338 1257q0 -123 39 -201.5t135 -80.5q170 1 170 282q0 111 -40 178.5t-130 67.5t-132 -67.5t-42 -178.5z" />
<glyph unicode="9" horiz-adv-x="1028" d="M90 1135q0 244 100.5 391t311.5 147q205 0 306 -150.5t101 -392.5v-557q0 -268 -94 -429.5t-313 -161.5q-195 0 -299.5 106.5t-108.5 304.5v19h219q0 -127 42 -187.5t149 -60.5q184 0 184 354v252q-33 -53 -93 -84t-149 -31q-195 0 -275.5 124t-80.5 356zM311 1188 q0 -125 10.5 -199t51.5 -121t129 -47q120 0 186 115v246q0 311 -186 311q-102 0 -146.5 -85t-44.5 -220z" />
<glyph unicode=":" horiz-adv-x="403" d="M123 197v233h221v-233h-221zM123 850v233h221v-233h-221z" />
<glyph unicode=";" horiz-adv-x="440" d="M119 2q119 8 119 137h-117v234h227v-230q0 -113 -45 -173t-147 -64zM121 913v244h221v-244h-221z" />
<glyph unicode="&#x3c;" horiz-adv-x="763" d="M59 487v220l586 417v-221l-420 -305l420 -305v-219z" />
<glyph unicode="=" horiz-adv-x="849" d="M111 571v166h628v-166h-628zM111 934v168h628v-168h-628z" />
<glyph unicode="&#x3e;" horiz-adv-x="763" d="M119 74v219l422 307l-422 303v221l588 -415v-220z" />
<glyph unicode="?" horiz-adv-x="997" d="M111 1303q0 166 103 268t288 102q195 0 303 -110.5t108 -309.5q0 -131 -49 -240.5t-131 -200.5t-207 -198v-198h-194v254q180 156 273 291t93 299q0 100 -51 161.5t-145 61.5q-82 0 -130 -46t-48 -122q0 -37 14 -103l-205 -38q-23 63 -22 129zM322 0v225h219v-225h-219z " />
<glyph unicode="@" horiz-adv-x="1851" d="M121 578q0 358 116.5 599.5t324.5 360.5t485 121q236 0 397.5 -108.5t240 -288t78.5 -390.5q0 -182 -60.5 -336.5t-173 -244.5t-257.5 -90q-88 0 -144.5 51t-58.5 137q-18 -74 -65.5 -126t-129.5 -58l-28 -2q-133 0 -206 107.5t-73 260.5q0 156 62.5 311.5t174 255 t249.5 99.5q31 0 68.5 -15.5t64.5 -35.5l20 35h160l-117 -752q-6 -39 -6 -76q0 -35 11.5 -52t41.5 -17q86 0 156 71.5t111 192.5t41 266q0 176 -61.5 319.5t-189.5 228.5t-321 85q-213 0 -373.5 -110.5t-250 -314.5t-89.5 -476q0 -342 179.5 -516t482.5 -174q180 0 373 55 l39 -160q-227 -66 -430 -65q-246 0 -435.5 94t-298 284.5t-108.5 473.5zM772 569q0 -86 32 -142t91 -56q57 0 108.5 53t71.5 164l72 477q-31 10 -57 10q-82 0 -155 -68.5t-118 -185t-45 -252.5z" />
<glyph unicode="A" d="M39 0l352 1659h223l355 -1659h-219l-76 418h-338l-80 -418h-217zM367 584h276l-139 747z" />
<glyph unicode="B" horiz-adv-x="1073" d="M129 0v1659h381q225 0 333.5 -101.5t108.5 -314.5q0 -317 -237 -350q147 -35 214.5 -138.5t67.5 -281.5q0 -223 -105.5 -348t-320.5 -125h-442zM360 166h156q102 0 158.5 31.5t79 97t22.5 178.5q0 160 -65.5 239t-212.5 79h-138v-625zM360 967h138q143 0 198.5 62.5 t55.5 213.5q0 111 -34 163t-101.5 66.5t-200.5 14.5h-56v-520z" />
<glyph unicode="C" horiz-adv-x="1054" d="M98 532v586q0 272 98.5 413.5t348.5 141.5q223 0 320.5 -120.5t97.5 -356.5v-131h-220v117q0 115 -10 176t-52 98t-134 37q-94 0 -140.5 -40t-60.5 -110.5t-14 -189.5v-657q0 -127 20.5 -199t66.5 -102.5t128 -30.5q88 0 131 39t54 106.5t11 184.5v122h220v-122 q0 -248 -93.5 -380t-324.5 -132q-246 0 -346.5 146t-100.5 404z" />
<glyph unicode="D" horiz-adv-x="1079" d="M129 0v1659h360q268 0 380 -123t112 -383v-610q0 -274 -109.5 -408.5t-363.5 -134.5h-379zM360 166h132q121 0 175 47t67.5 128t13.5 245v538q0 141 -17.5 216t-73 111t-172.5 36h-125v-1321z" />
<glyph unicode="E" horiz-adv-x="833" d="M129 0v1659h643v-172h-412v-549h334v-164h-334v-608h416v-166h-647z" />
<glyph unicode="F" horiz-adv-x="800" d="M129 0v1659h641v-166h-410v-553h318v-164h-318v-776h-231z" />
<glyph unicode="G" horiz-adv-x="1095" d="M98 545v555q0 193 40 316.5t137.5 190t267.5 66.5q229 0 330.5 -116.5t101.5 -366.5v-62h-217v52q0 119 -14.5 183t-60.5 97t-136 33q-96 0 -143.5 -44t-60.5 -118t-13 -196v-615q0 -190 46 -273t177 -83q129 0 177 90t48 289v114h-211v164h420v-821h-145l-23 190 q-78 -210 -293 -210h-2q-225 0 -325.5 142t-100.5 423z" />
<glyph unicode="H" horiz-adv-x="1148" d="M129 0v1659h231v-717h426v717h232v-1659h-232v776h-426v-776h-231z" />
<glyph unicode="I" horiz-adv-x="507" d="M141 0v1659h228v-1659h-228z" />
<glyph unicode="J" horiz-adv-x="616" d="M14 -39v166q104 0 154.5 19.5t69 71.5t18.5 161v1280h229v-1284q0 -150 -30.5 -239t-109.5 -132t-220 -43h-111z" />
<glyph unicode="K" horiz-adv-x="1013" d="M129 0v1659h231v-782l381 782h215l-327 -731l381 -928h-226l-317 778l-107 -192v-586h-231z" />
<glyph unicode="L" horiz-adv-x="813" d="M129 0v1659h231v-1493h424v-166h-655z" />
<glyph unicode="M" horiz-adv-x="1351" d="M125 0l31 1659h227l293 -1346l295 1346h225l31 -1659h-187l-18 1204l-281 -1204h-131l-278 1204l-19 -1204h-188z" />
<glyph unicode="N" horiz-adv-x="1081" d="M129 0v1659h158l471 -1102v1102h192v-1659h-147l-477 1133v-1133h-197z" />
<glyph unicode="O" horiz-adv-x="1103" d="M98 520v629q0 258 106.5 391t348.5 133t347.5 -134t105.5 -390v-631q0 -258 -106.5 -397t-346.5 -139q-244 0 -349.5 138t-105.5 400zM332 469q0 -154 45 -229.5t176 -75.5q129 0 174 75.5t45 229.5v727q0 152 -45 224.5t-174 72.5q-131 0 -176 -72.5t-45 -224.5v-727z " />
<glyph unicode="P" horiz-adv-x="983" d="M129 0v1659h412q215 0 312 -117t97 -342q0 -203 -104.5 -315.5t-302.5 -112.5h-183v-772h-231zM360 938h107q102 0 158.5 22.5t81 78t24.5 159.5q0 127 -18.5 186.5t-72.5 84t-171 24.5h-109v-555z" />
<glyph unicode="Q" horiz-adv-x="1107" d="M98 520v629q0 258 106.5 391t348.5 133t348.5 -134t106.5 -390v-631q0 -395 -244 -498q102 -133 164 -174l-37 -182q-125 62 -299 320q-12 -2 -39 -2q-244 0 -349.5 138t-105.5 400zM332 469q0 -154 45 -229.5t176 -75.5t176 75.5t45 229.5v727q0 152 -45 224.5 t-176 72.5t-176 -72.5t-45 -224.5v-727z" />
<glyph unicode="R" horiz-adv-x="1062" d="M129 0v1659h334q252 0 369.5 -103.5t117.5 -336.5q0 -319 -205 -388l236 -831h-223l-217 778h-181v-778h-231zM360 944h89q150 0 214 59.5t64 215.5q0 102 -22.5 160.5t-80 86t-161.5 27.5h-103v-549z" />
<glyph unicode="S" horiz-adv-x="968" d="M80 465l205 55q10 -160 62 -258t173 -98q90 0 136 50t46 144q0 102 -43 170t-137 150l-278 246q-84 74 -122 158.5t-38 207.5q0 182 104.5 282.5t284.5 100.5q197 0 297 -104.5t121 -323.5l-197 -53q-10 145 -56 224t-165 79q-88 0 -135 -46t-47 -136q0 -74 24.5 -124 t83.5 -102l281 -245q109 -96 173.5 -209t64.5 -256q0 -182 -111 -288.5t-287 -106.5q-209 0 -318.5 129t-121.5 354z" />
<glyph unicode="T" horiz-adv-x="845" d="M31 1487v172h784v-172h-272v-1487h-232v1487h-280z" />
<glyph unicode="U" horiz-adv-x="1112" d="M115 559v1100h221v-1110q0 -188 44 -286.5t177 -98.5t177 98t44 287v1110h219v-1100q0 -188 -36.5 -313t-133 -194.5t-270.5 -69.5t-271.5 69.5t-134 194.5t-36.5 313z" />
<glyph unicode="V" horiz-adv-x="1034" d="M47 1659h217l262 -1223l250 1223h211l-366 -1659h-203z" />
<glyph unicode="W" horiz-adv-x="1492" d="M74 1659h192l178 -1192l224 1186h163l226 -1192l174 1198h188l-266 -1659h-168l-231 1229l-234 -1229h-176z" />
<glyph unicode="X" horiz-adv-x="987" d="M27 0l346 868l-340 791h215l252 -586l229 586h215l-348 -809l365 -850h-216l-270 625l-233 -625h-215z" />
<glyph unicode="Y" horiz-adv-x="985" d="M25 1659h215l254 -801l249 801h218l-357 -1073v-586h-221v586z" />
<glyph unicode="Z" horiz-adv-x="854" d="M78 0v166l487 1327h-456v166h702v-100l-514 -1393h514v-166h-733z" />
<glyph unicode="[" horiz-adv-x="696" d="M129 -377v2036h451v-113h-232v-1810h232v-113h-451z" />
<glyph unicode="\" horiz-adv-x="755" d="M59 1659h189l448 -1659h-190z" />
<glyph unicode="]" horiz-adv-x="634" d="M53 -264h232v1808h-232v115h453v-2036h-453v113z" />
<glyph unicode="^" horiz-adv-x="907" d="M70 997l274 662h221l275 -662h-209l-176 498l-179 -498h-206z" />
<glyph unicode="_" horiz-adv-x="704" d="M0 -109h705v-165h-705v165z" />
<glyph unicode="`" horiz-adv-x="569" d="M117 1659h219l117 -406h-111z" />
<glyph unicode="a" horiz-adv-x="872" d="M86 258q0 139 59.5 226t151.5 138.5t256 116.5v84q0 117 -23.5 165t-95.5 48q-125 0 -125 -168v-59l-217 8q4 197 90 290t267 93q170 0 246.5 -93t76.5 -282v-540q0 -133 21 -285h-201q-23 117 -29 174q-25 -80 -85 -135t-154 -55q-68 0 -122.5 38.5t-85 102t-30.5 133.5 zM305 326q0 -74 26.5 -114t78.5 -40q43 0 84 34t59 64v336q-88 -49 -136 -85t-80 -83t-32 -112z" />
<glyph unicode="b" horiz-adv-x="915" d="M115 0v1659h219v-569q95 110 221 110h2q162 0 216 -138t54 -306v-287q0 -485 -292 -485q-107 0 -201 102v-86h-219zM334 209q68 -53 155 -53q76 0 97.5 76.5t21.5 236.5v287q0 131 -24.5 201.5t-102.5 70.5q-72 0 -147 -59v-760z" />
<glyph unicode="c" horiz-adv-x="841" d="M88 455v272q0 160 27.5 262.5t103.5 156.5t215 54q127 0 197.5 -41t98.5 -122t28 -210v-69h-199v71q0 117 -25.5 163t-97.5 46q-55 0 -81.5 -24.5t-37 -79.5t-10.5 -162v-373q0 -102 12.5 -156.5t40 -76t78.5 -21.5q76 0 98.5 50.5t22.5 154.5v96h199v-81 q0 -193 -71 -287t-253 -94q-139 0 -215 56t-103.5 157.5t-27.5 257.5z" />
<glyph unicode="d" horiz-adv-x="905" d="M88 465v229q0 236 62.5 371t228.5 135q104 0 196 -92v551h220v-1659h-220v76q-86 -92 -190 -92q-154 0 -225.5 111.5t-71.5 369.5zM307 446q0 -143 26.5 -216.5t106.5 -73.5q65 0 135 45v776q-76 51 -139 51q-129 0 -129 -248v-334z" />
<glyph unicode="e" horiz-adv-x="862" d="M88 457v270q0 246 77 359.5t273 113.5q143 0 216 -59.5t96.5 -167t23.5 -289.5v-96h-467v-238q0 -109 32 -157t101 -48q70 0 94.5 48.5t24.5 146.5v72h213v-45q0 -186 -80 -284.5t-254 -98.5q-137 0 -212.5 52t-106.5 154.5t-31 266.5zM307 707h252v106q0 121 -23.5 173 t-99.5 52q-53 0 -80.5 -24.5t-38 -80.5t-10.5 -163v-63z" />
<glyph unicode="f" horiz-adv-x="587" d="M39 1022v162h141v61q0 123 18.5 198t75 115.5t162.5 40.5q72 0 144 -14v-160q-41 10 -82 11q-59 0 -79 -38t-20 -116v-98h181v-162h-181v-1022h-219v1022h-141z" />
<glyph unicode="g" horiz-adv-x="890" d="M41 -143q0 78 48 135t122 92q-55 16 -85 51t-30 76q0 61 31 106t100 109q-70 53 -103.5 134t-33.5 218q0 207 85 314.5t249 107.5q94 0 153.5 -32.5t90.5 -98.5q14 23 60 60.5t99 62.5l33 14l55 -141q-41 -8 -113.5 -34.5t-86.5 -41.5q14 -37 25.5 -102.5t11.5 -114.5 q0 -195 -76 -302.5t-252 -107.5q-55 0 -113 15q-39 -57 -39 -90q0 -23 23.5 -36t75.5 -18l184 -16q139 -12 206.5 -84t67.5 -205q0 -295 -411 -295q-172 0 -274.5 54.5t-102.5 169.5zM225 -88q0 -55 46 -81t163 -26t172.5 28t55.5 89q0 57 -35 85t-127 36l-187 16 q-43 -43 -65.5 -75.5t-22.5 -71.5zM281 778q0 -127 29.5 -194.5t113.5 -67.5q88 0 114.5 61.5t26.5 200.5q0 141 -26.5 206t-112.5 65t-115.5 -64.5t-29.5 -206.5z" />
<glyph unicode="h" horiz-adv-x="911" d="M117 0v1659h219v-598q147 139 297 139q96 0 136 -69.5t40 -172.5v-958h-219v895q0 68 -20.5 100.5t-73.5 32.5q-72 0 -160 -78v-950h-219z" />
<glyph unicode="i" horiz-adv-x="468" d="M125 0v1184h219v-1184h-219zM125 1360v229h219v-229h-219z" />
<glyph unicode="j" horiz-adv-x="471" d="M-39 -127q43 -6 57 -6q68 0 95.5 38t27.5 105v1174h219v-1196q0 -139 -75.5 -213t-210.5 -74q-80 0 -113 14v158zM141 1360v229h221v-229h-221z" />
<glyph unicode="k" horiz-adv-x="878" d="M115 2v1659h219v-989l319 512h230l-279 -463l270 -721h-219l-221 606l-100 -151v-453h-219z" />
<glyph unicode="l" horiz-adv-x="468" d="M131 0v1659h219v-1659h-219z" />
<glyph unicode="m" horiz-adv-x="1392" d="M111 0v1184h202v-113q59 66 130 99.5t149 33.5q152 0 192 -149q122 149 293 149h2q92 0 150.5 -67.5t58.5 -206.5v-930h-201v915q0 82 -26.5 114t-75.5 32q-45 0 -94 -25.5t-90 -70.5v-35v-930h-201v915q0 82 -26.5 114t-75.5 32q-43 0 -92.5 -25.5t-92.5 -70.5v-965 h-202z" />
<glyph unicode="n" horiz-adv-x="899" d="M111 0v1184h219v-117q141 133 288 133q96 0 137.5 -69.5t41.5 -172.5v-958h-219v895q0 68 -20.5 100.5t-74.5 32.5q-66 0 -153 -74v-954h-219z" />
<glyph unicode="o" horiz-adv-x="870" d="M90 420v344q0 213 79 324.5t267 111.5q186 0 265 -111.5t79 -324.5v-344q0 -213 -78.5 -324.5t-265.5 -111.5q-188 0 -267 111.5t-79 324.5zM309 406q0 -88 6.5 -139.5t34 -86.5t86.5 -35q60 0 86.5 35t32.5 86t6 140v370q0 88 -6 140.5t-32.5 87t-86.5 34.5 q-59 0 -86.5 -34.5t-34 -87t-6.5 -140.5v-370z" />
<glyph unicode="p" horiz-adv-x="913" d="M111 -389v1573h219v-94q95 110 223 110h2q162 0 216 -138t54 -306v-287q0 -217 -66.5 -351t-228.5 -134q-104 0 -200 104v-477h-219zM330 209q72 -53 157 -53q76 0 97.5 76.5t21.5 236.5v287q0 131 -24.5 201.5t-102.5 70.5q-76 0 -149 -61v-758z" />
<glyph unicode="q" horiz-adv-x="907" d="M90 465v229q0 236 62.5 371t228.5 135q104 0 197 -92v76h219v-1573h-219v465q-86 -92 -191 -92q-154 0 -225.5 111.5t-71.5 369.5zM309 446q0 -143 26.5 -216.5t106.5 -73.5q70 0 136 45v776q-76 51 -140 51q-129 0 -129 -248v-334z" />
<glyph unicode="r" horiz-adv-x="657" d="M117 0v1184h219v-168q61 100 125.5 141t136.5 41q18 0 35 -2v-242q-66 25 -121 25q-53 0 -95 -25.5t-81 -89.5v-864h-219z" />
<glyph unicode="s" horiz-adv-x="765" d="M51 315l182 56q16 -115 56.5 -170.5t113.5 -55.5q57 0 89 34t32 91q0 51 -22.5 92t-73.5 84l-203 175q-70 59 -107.5 125.5t-37.5 162.5q0 137 82 214t223 77q135 0 212 -87t89 -224l-147 -55q-14 100 -47 152t-99 52q-53 0 -85 -34.5t-32 -85.5q0 -66 60 -119l209 -193 q80 -74 124 -145.5t44 -173.5q0 -147 -88 -225t-240 -78q-143 0 -232.5 90t-101.5 241z" />
<glyph unicode="t" horiz-adv-x="630" d="M45 1038v146h125v346h219v-346h191v-146h-191v-757q0 -72 22.5 -100.5t86.5 -28.5q41 0 80 6v-162q-82 -12 -152 -12h-2q-254 0 -254 282v772h-125z" />
<glyph unicode="u" horiz-adv-x="901" d="M102 225v959h220v-893q0 -68 20 -101.5t74 -33.5q66 0 153 73v955h219v-1184h-219v117q-141 -133 -288 -133q-97 0 -138 69.5t-41 171.5z" />
<glyph unicode="v" horiz-adv-x="788" d="M31 1184h221l145 -953l148 953h213l-226 -1184h-268z" />
<glyph unicode="w" horiz-adv-x="1204" d="M57 1184h181l122 -873l158 873h168l158 -869l123 869h180l-197 -1184h-184l-162 836l-160 -836h-196z" />
<glyph unicode="x" horiz-adv-x="796" d="M18 0l267 623l-260 561h208l175 -375l153 375h215l-270 -588l274 -596h-209l-186 401l-160 -401h-207z" />
<glyph unicode="y" horiz-adv-x="802" d="M25 1184h221l160 -885l153 885h221l-282 -1250q-29 -125 -121 -178t-258 -53h-27v168q123 0 169 18.5t46 69.5q0 25 -45 217z" />
<glyph unicode="z" horiz-adv-x="710" d="M66 0v147l362 873h-326v164h562v-119l-365 -899h356v-166h-589z" />
<glyph unicode="{" horiz-adv-x="614" d="M82 565v152q51 0 75.5 18.5t34 71.5t9.5 168v287q0 199 20.5 277.5t93 106t252.5 27.5v-162q-72 0 -98.5 -15t-32.5 -61t-6 -173v-320q0 -145 -35 -215t-100 -86q66 -14 100.5 -84t34.5 -215v-322q0 -129 6 -174t33 -60t98 -15v-162q-180 0 -252.5 27.5t-93 106.5 t-20.5 277v289q0 115 -9.5 167t-34 70.5t-75.5 18.5z" />
<glyph unicode="|" horiz-adv-x="489" d="M141 -303l2 1962h203v-1962h-205z" />
<glyph unicode="}" horiz-adv-x="657" d="M90 -229q72 0 98.5 15t32.5 60t6 174v322q0 145 35 215t103 84q-68 16 -103 86t-35 215v320q0 127 -6 173t-32.5 61t-98.5 15v162q180 0 253 -27.5t93.5 -106.5t20.5 -277v-287q0 -117 9 -169t32.5 -70.5t76.5 -18.5v-152q-53 0 -76.5 -18.5t-32.5 -70.5t-9 -167v-289 q0 -199 -20.5 -277.5t-93.5 -106t-253 -27.5v162z" />
<glyph unicode="~" horiz-adv-x="915" d="M72 887q51 53 123.5 101t119.5 48q35 0 72 -15t88 -46q49 -27 82 -41t61 -14q27 0 61 20.5t87 60.5l78 -100q-51 -59 -119 -108.5t-119 -49.5q-35 0 -73.5 15.5t-92.5 46.5q-45 27 -78.5 41t-62.5 14q-27 0 -68 -22.5t-81 -55.5z" />
<glyph unicode="&#xa1;" horiz-adv-x="425" d="M102 -365l72 1303h78l72 -1303h-222zM102 1069v225h222v-225h-222z" />
<glyph unicode="&#xa2;" horiz-adv-x="794" d="M88 455v272q0 221 58.5 336t220.5 133v147h69v-143q125 0 195.5 -42t98.5 -122t28 -209v-69h-199v71q0 117 -25.5 163t-97.5 46q-55 0 -81.5 -24.5t-37 -79.5t-10.5 -162v-373q0 -102 12.5 -156.5t40 -76t78.5 -21.5q76 0 98.5 50.5t22.5 154.5v96h199v-81 q0 -193 -71 -287t-253 -94v-146h-69v150q-162 18 -219.5 134t-57.5 333z" />
<glyph unicode="&#xa3;" horiz-adv-x="815" d="M4 0v111l121 53v561h-121v164h121v188q0 188 23.5 314.5t99.5 204t223 77.5q287 0 291 -354v-68h-164q0 113 -25.5 178.5t-101.5 65.5t-100.5 -71.5t-28.5 -198.5v-336h246v-164h-246v-559h418v-166h-756z" />
<glyph unicode="&#xa4;" horiz-adv-x="1126" d="M78 412l164 161q-53 57 -83 133t-30 160q0 82 29.5 158t83.5 135l-164 162l31 31l161 -162q57 55 133 85t160 30t160 -30t133 -85l162 162l31 -31l-162 -162q51 -59 79.5 -134t28.5 -159t-28.5 -159.5t-81.5 -133.5l164 -161l-31 -31l-162 162q-59 -55 -134 -86t-159 -29 q-84 -2 -158.5 28.5t-134.5 86.5l-161 -162zM225 866q0 -94 45 -175t122 -128t171 -47t172 47t123 128t45 175t-45 175t-123 128.5t-172 47.5t-171 -47.5t-122 -128t-45 -175.5z" />
<glyph unicode="&#xa5;" horiz-adv-x="935" d="M20 1659h216l251 -801l250 801h219l-333 -1006h157v-141h-182v-133h182v-143h-182v-236h-219v236h-182v143h182v133h-182v141h159z" />
<glyph unicode="&#xa6;" horiz-adv-x="434" d="M129 -313v837h176v-837h-176zM129 819v840h176v-840h-176z" />
<glyph unicode="&#xa7;" horiz-adv-x="874" d="M86 870q0 98 47 168t127 103q-72 47 -120 111.5t-48 144.5q0 129 95.5 202.5t250.5 73.5q143 0 228.5 -86t117.5 -221l-166 -55q-31 80 -71.5 132t-110.5 52q-57 0 -91 -32.5t-34 -92.5q0 -35 20.5 -64.5t51.5 -50.5l264 -172q68 -43 106 -113.5t38 -160.5 q0 -94 -40 -160.5t-110 -103.5q68 -57 105.5 -115.5t37.5 -138.5q0 -147 -94 -227t-252 -80q-143 0 -229 87t-121 226l166 55q63 -188 184 -188q66 0 103 34.5t37 102.5q0 82 -86 145l-236 154q-82 51 -126 112.5t-44 157.5zM305 870q0 -33 17.5 -63.5t42.5 -48.5l127 -92 q40 18 70 54t30 83q2 39 -16.5 78t-57.5 65l-115 78q-39 -20 -68.5 -62t-29.5 -92z" />
<glyph unicode="&#xa8;" horiz-adv-x="819" d="M123 1432v227h219v-227h-219zM473 1432v227h221v-227h-221z" />
<glyph unicode="&#xa9;" horiz-adv-x="1765" d="M59 844q0 221 88.5 418.5t273.5 321.5t462 124q276 0 461.5 -124t273.5 -321.5t88 -418.5q0 -223 -87 -420t-272.5 -322t-463.5 -125q-277 0 -462 125t-273.5 323t-88.5 419zM166 844q0 -205 79 -381t241.5 -285.5t402.5 -109.5q239 0 402 109.5t242 285.5t79 381 t-79 381t-242 284.5t-402 108.5q-240 0 -402.5 -108.5t-241.5 -284.5t-79 -381zM502 745v220q0 168 30.5 274.5t114.5 162.5t238 56q141 0 219 -42t108.5 -126t30.5 -219v-55h-215v55q0 123 -30.5 171t-108.5 48q-61 0 -94 -25.5t-45.5 -85t-12.5 -167.5v-324 q0 -106 14.5 -162.5t47 -79t90.5 -22.5q84 0 111.5 52t27.5 161v65h215v-51q0 -201 -79 -299t-279 -98q-156 0 -240 58.5t-113.5 164t-29.5 268.5z" />
<glyph unicode="&#xaa;" horiz-adv-x="907" d="M158 885q0 100 56 166.5t136 104.5t215 83v109q0 86 -18.5 132t-69.5 46q-106 0 -106 -180h-181q4 154 80 245.5t209 91.5q160 0 219.5 -97t59.5 -300v-616h-176v131q-33 -63 -90.5 -103.5t-126.5 -40.5q-91 0 -149 64.5t-58 163.5zM352 930q0 -49 22.5 -77t61.5 -28 q41 0 76 29t53 68v231q-104 -49 -158.5 -98t-54.5 -125z" />
<glyph unicode="&#xab;" horiz-adv-x="931" d="M63 551v106l334 467v-274l-168 -246l168 -248v-272zM461 551v106l336 467v-274l-168 -246l168 -248v-272z" />
<glyph unicode="&#xac;" horiz-adv-x="792" d="M82 754v166h655v-396h-112v230h-543z" />
<glyph unicode="&#xad;" horiz-adv-x="704" d="M119 956v166h471v-166h-471z" />
<glyph unicode="&#xae;" horiz-adv-x="1818" d="M94 829q0 219 87 415t270.5 319t457.5 123t457.5 -123t270.5 -318.5t87 -415.5q0 -221 -86 -415.5t-269 -317.5t-460 -123q-274 0 -457.5 123t-270.5 318.5t-87 414.5zM211 829q0 -199 75.5 -369.5t233.5 -277t389 -106.5q230 0 387.5 106.5t233.5 277.5t76 369 q0 199 -76 370t-232.5 275.5t-388.5 104.5q-231 0 -389 -104.5t-233.5 -275.5t-75.5 -370zM598 295v1085h320q346 0 346 -315q0 -188 -174 -262l196 -508h-199l-174 469h-125v-469h-190zM788 866h68q84 0 129 19.5t63.5 62.5t18.5 121q0 92 -38 138t-128 46h-113v-387z" />
<glyph unicode="&#xaf;" horiz-adv-x="581" d="M94 1526v133h393v-133h-393z" />
<glyph unicode="&#xb0;" horiz-adv-x="927" d="M119 1331q0 160 92 251t252 91t253 -91t93 -251q0 -162 -93 -254t-253 -92t-252 92t-92 254zM285 1331q0 -90 47 -144t131 -54t131 54t47 144t-47 144.5t-131 54.5t-131 -54.5t-47 -144.5z" />
<glyph unicode="&#xb1;" horiz-adv-x="753" d="M117 0v168h524v-168h-524zM117 537v168h178v178h168v-178h178v-168h-178v-179h-168v179h-178z" />
<glyph unicode="&#xb2;" horiz-adv-x="864" d="M156 1489v29q0 145 74.5 233t228.5 88q133 0 208.5 -72.5t75.5 -199.5q0 -96 -44 -172t-154 -189l-170 -176h379v-143h-596v125l254 276q94 100 128.5 157.5t34.5 110.5q0 61 -29.5 95.5t-86.5 34.5q-76 0 -109 -49.5t-33 -147.5h-161z" />
<glyph unicode="&#xb3;" horiz-adv-x="872" d="M160 1145v33h162v-9q0 -150 133 -149q115 0 114 133q0 68 -26.5 101.5t-89.5 33.5h-54v135h47q113 0 113 133q0 59 -28.5 94.5t-84.5 35.5q-125 0 -124 -150v-8h-162v33q0 135 77.5 206.5t213.5 71.5q129 0 202.5 -65.5t73.5 -184.5q0 -88 -38 -148.5t-97 -80.5 q145 -49 145 -225q0 -131 -76.5 -200t-209.5 -69q-150 0 -220.5 75t-70.5 204z" />
<glyph unicode="&#xb4;" horiz-adv-x="567" d="M115 1253l121 406h219l-230 -406h-110z" />
<glyph unicode="&#xb5;" horiz-adv-x="903" d="M102 1184h220v-893q0 -68 20 -101.5t74 -33.5q66 0 153 73v955h219v-1184h-219v117q-80 -82 -178 -113q-35 -10 -65 -10v-352h-222z" />
<glyph unicode="&#xb6;" d="M66 1356q0 152 98 227.5t276 75.5h439v-1856h-158v1751h-158v-1751h-155v1252q-156 0 -249 78.5t-93 222.5z" />
<glyph unicode="&#xb7;" horiz-adv-x="360" d="M74 659v226h221v-226h-221z" />
<glyph unicode="&#xb8;" horiz-adv-x="720" d="M163 -350q49 -14 105 -15q55 0 90 19.5t35 60.5q0 51 -42 77t-132 38v170h110v-115q102 0 165 -48t63 -128q0 -94 -71 -142t-185 -48q-60 0 -138 20v111z" />
<glyph unicode="&#xb9;" horiz-adv-x="696" d="M164 1542v141l268 136h80v-932h-160v729z" />
<glyph unicode="&#xba;" horiz-adv-x="907" d="M137 1034v271q0 184 73 281t245 97q164 0 239.5 -100t75.5 -278v-271q0 -178 -76 -278.5t-239 -100.5q-172 0 -245 97.5t-73 281.5zM319 1059q0 -119 25 -181.5t107 -62.5q59 0 86.5 32t34 81t6.5 131v221q0 82 -6.5 130t-34 80t-86.5 32q-84 0 -108 -61.5t-24 -180.5 v-221z" />
<glyph unicode="&#xbb;" horiz-adv-x="985" d="M117 84v272l186 248l-186 246v274l354 -467v-106zM516 84v272l186 248l-186 246v274l352 -467v-106z" />
<glyph unicode="&#xbc;" horiz-adv-x="1935" d="M189 1382v141l268 136h80v-932h-160v729zM440 0l760 1659h189l-760 -1659h-189zM1034 219v121l391 592h121v-588h90v-125h-90v-219h-160v219h-352zM1196 344h190l-2 299z" />
<glyph unicode="&#xbd;" horiz-adv-x="1935" d="M117 1382v141l268 136h80v-932h-160v729zM368 0l760 1659h189l-760 -1659h-189zM1135 602v29q0 145 74.5 233t228.5 88q133 0 208.5 -72.5t75.5 -199.5q0 -96 -44 -172t-154 -189l-170 -176h379v-143h-596v125l254 276q94 100 128.5 157.5t34.5 110.5q0 61 -29.5 95.5 t-86.5 34.5q-76 0 -109 -49.5t-33 -147.5h-161z" />
<glyph unicode="&#xbe;" horiz-adv-x="1789" d="M121 979v33h162v-9q0 -150 133 -149q115 0 114 133q0 68 -26.5 101.5t-89.5 33.5h-54v135h47q113 0 113 133q0 59 -28.5 94.5t-84.5 35.5q-125 0 -124 -150v-8h-162v33q0 135 77.5 206.5t213.5 71.5q129 0 202.5 -65.5t73.5 -184.5q0 -88 -38 -148.5t-97 -80.5 q145 -49 145 -225q0 -131 -76.5 -200t-209.5 -69q-150 0 -220.5 75t-70.5 204zM524 0l760 1659h189l-760 -1659h-189zM1118 219v121l391 592h121v-588h90v-125h-90v-219h-160v219h-352zM1280 344h190l-2 299z" />
<glyph unicode="&#xbf;" horiz-adv-x="997" d="M113 33q0 131 49 240.5t131 200.5t207 198v198h194v-254q-180 -156 -273 -291t-93 -299q0 -100 51 -161.5t145 -61.5q82 0 130 46t48 122q0 37 -14 103l205 38q23 -63 22 -129q0 -166 -103 -268t-288 -102q-195 0 -303 110.5t-108 309.5zM485 1061v225h219v-225h-219z " />
<glyph unicode="&#xc0;" d="M39 0l352 1659h223l355 -1659h-219l-76 418h-338l-80 -418h-217zM225 2163h220l116 -406h-108zM367 584h276l-139 747z" />
<glyph unicode="&#xc1;" d="M39 0l352 1659h223l355 -1659h-219l-76 418h-338l-80 -418h-217zM367 584h276l-139 747zM447 1757l120 406h220l-230 -406h-110z" />
<glyph unicode="&#xc2;" d="M39 0l352 1659h223l355 -1659h-219l-76 418h-338l-80 -418h-217zM215 1775l176 359h224l178 -359h-166l-125 248l-123 -248h-164zM367 584h276l-139 747z" />
<glyph unicode="&#xc3;" d="M39 0l352 1659h223l355 -1659h-219l-76 418h-338l-80 -418h-217zM197 1925q0 221 164 221q35 0 66.5 -13t72.5 -38t66.5 -36t54.5 -11q37 0 52 19.5t15 66.5h123q0 -104 -33.5 -164.5t-117.5 -60.5q-41 0 -75 14t-77 41q-41 23 -65.5 34t-51.5 11q-37 0 -53 -19.5 t-16 -64.5h-125zM367 584h276l-139 747z" />
<glyph unicode="&#xc4;" d="M39 0l352 1659h223l355 -1659h-219l-76 418h-338l-80 -418h-217zM217 1907v227h221v-227h-221zM367 584h276l-139 747zM570 1907v227h221v-227h-221z" />
<glyph unicode="&#xc5;" d="M39 0l352 1659h223l355 -1659h-219l-76 418h-338l-80 -418h-217zM275 1925q0 104 62.5 165.5t166.5 61.5t166.5 -61.5t62.5 -165.5t-63.5 -166.5t-165.5 -62.5t-165.5 62.5t-63.5 166.5zM367 584h276l-139 747zM385 1925q0 -55 32 -87t87 -32q53 0 86 32t33 87t-32 87 t-87 32t-87 -31t-32 -88z" />
<glyph unicode="&#xc6;" horiz-adv-x="1300" d="M-104 0l698 1659h645v-168h-420v-549h301v-166h-301v-608h420v-168h-641v420h-305l-176 -420h-221zM354 586h244v653z" />
<glyph unicode="&#xc7;" horiz-adv-x="1054" d="M98 532v586q0 272 98.5 413.5t348.5 141.5q223 0 320.5 -120.5t97.5 -356.5v-131h-220v117q0 115 -10 176t-52 98t-134 37q-94 0 -140.5 -40t-60.5 -110.5t-14 -189.5v-657q0 -127 20.5 -199t66.5 -102.5t128 -30.5q88 0 131 39t54 106.5t11 184.5v122h220v-122 q0 -248 -93.5 -380t-324.5 -132q-246 0 -346.5 146t-100.5 404zM417 -350q49 -14 105 -15q55 0 90 19.5t35 60.5q0 51 -42 77t-132 38v170h110v-115q102 0 165 -48t63 -128q0 -94 -71 -142t-185 -48q-60 0 -138 20v111z" />
<glyph unicode="&#xc8;" horiz-adv-x="833" d="M129 0v1659h643v-172h-412v-549h334v-164h-334v-608h416v-166h-647zM180 2163h220l116 -406h-108z" />
<glyph unicode="&#xc9;" horiz-adv-x="833" d="M129 0v1659h643v-172h-412v-549h334v-164h-334v-608h416v-166h-647zM402 1757l120 406h220l-230 -406h-110z" />
<glyph unicode="&#xca;" horiz-adv-x="833" d="M129 0v1659h643v-172h-412v-549h334v-164h-334v-608h416v-166h-647zM170 1775l176 359h224l178 -359h-166l-125 248l-123 -248h-164z" />
<glyph unicode="&#xcb;" horiz-adv-x="833" d="M129 0v1659h643v-172h-412v-549h334v-164h-334v-608h416v-166h-647zM172 1907v227h221v-227h-221zM525 1907v227h221v-227h-221z" />
<glyph unicode="&#xcc;" horiz-adv-x="507" d="M-25 2163h220l116 -406h-108zM141 0v1659h228v-1659h-228z" />
<glyph unicode="&#xcd;" horiz-adv-x="507" d="M141 0v1659h228v-1659h-228zM197 1757l120 406h220l-230 -406h-110z" />
<glyph unicode="&#xce;" horiz-adv-x="507" d="M-35 1775l176 359h224l178 -359h-166l-125 248l-123 -248h-164zM141 0v1659h228v-1659h-228z" />
<glyph unicode="&#xcf;" horiz-adv-x="507" d="M-33 1907v227h221v-227h-221zM141 0v1659h228v-1659h-228zM320 1907v227h221v-227h-221z" />
<glyph unicode="&#xd0;" horiz-adv-x="1060" d="M29 795v133h100v731h360q268 0 380 -123t112 -383v-610q0 -274 -109.5 -408.5t-363.5 -134.5h-379v795h-100zM360 166h132q121 0 175 47t67.5 128t13.5 245v538q0 141 -17.5 216t-73 111t-172.5 36h-125v-559h125v-133h-125v-629z" />
<glyph unicode="&#xd1;" horiz-adv-x="1081" d="M129 0v1659h158l471 -1102v1102h192v-1659h-147l-477 1133v-1133h-197zM234 1925q0 221 164 221q35 0 66.5 -13t72.5 -38t66.5 -36t54.5 -11q37 0 52 19.5t15 66.5h123q0 -104 -33.5 -164.5t-117.5 -60.5q-41 0 -75 14t-77 41q-41 23 -65.5 34t-51.5 11q-37 0 -53 -19.5 t-16 -64.5h-125z" />
<glyph unicode="&#xd2;" horiz-adv-x="1103" d="M98 520v629q0 258 106.5 391t348.5 133t347.5 -134t105.5 -390v-631q0 -258 -106.5 -397t-346.5 -139q-244 0 -349.5 138t-105.5 400zM274 2163h220l116 -406h-108zM332 469q0 -154 45 -229.5t176 -75.5q129 0 174 75.5t45 229.5v727q0 152 -45 224.5t-174 72.5 q-131 0 -176 -72.5t-45 -224.5v-727z" />
<glyph unicode="&#xd3;" horiz-adv-x="1103" d="M98 520v629q0 258 106.5 391t348.5 133t347.5 -134t105.5 -390v-631q0 -258 -106.5 -397t-346.5 -139q-244 0 -349.5 138t-105.5 400zM332 469q0 -154 45 -229.5t176 -75.5q129 0 174 75.5t45 229.5v727q0 152 -45 224.5t-174 72.5q-131 0 -176 -72.5t-45 -224.5v-727z M496 1757l120 406h220l-230 -406h-110z" />
<glyph unicode="&#xd4;" horiz-adv-x="1103" d="M98 520v629q0 258 106.5 391t348.5 133t347.5 -134t105.5 -390v-631q0 -258 -106.5 -397t-346.5 -139q-244 0 -349.5 138t-105.5 400zM264 1775l176 359h224l178 -359h-166l-125 248l-123 -248h-164zM332 469q0 -154 45 -229.5t176 -75.5q129 0 174 75.5t45 229.5v727 q0 152 -45 224.5t-174 72.5q-131 0 -176 -72.5t-45 -224.5v-727z" />
<glyph unicode="&#xd5;" horiz-adv-x="1103" d="M98 520v629q0 258 106.5 391t348.5 133t347.5 -134t105.5 -390v-631q0 -258 -106.5 -397t-346.5 -139q-244 0 -349.5 138t-105.5 400zM246 1925q0 221 164 221q35 0 66.5 -13t72.5 -38t66.5 -36t54.5 -11q37 0 52 19.5t15 66.5h123q0 -104 -33.5 -164.5t-117.5 -60.5 q-41 0 -75 14t-77 41q-41 23 -65.5 34t-51.5 11q-37 0 -53 -19.5t-16 -64.5h-125zM332 469q0 -154 45 -229.5t176 -75.5q129 0 174 75.5t45 229.5v727q0 152 -45 224.5t-174 72.5q-131 0 -176 -72.5t-45 -224.5v-727z" />
<glyph unicode="&#xd6;" horiz-adv-x="1103" d="M98 520v629q0 258 106.5 391t348.5 133t347.5 -134t105.5 -390v-631q0 -258 -106.5 -397t-346.5 -139q-244 0 -349.5 138t-105.5 400zM266 1907v227h221v-227h-221zM332 469q0 -154 45 -229.5t176 -75.5q129 0 174 75.5t45 229.5v727q0 152 -45 224.5t-174 72.5 q-131 0 -176 -72.5t-45 -224.5v-727zM619 1907v227h221v-227h-221z" />
<glyph unicode="&#xd7;" horiz-adv-x="784" d="M100 631l183 182l-183 182l111 111l180 -182l182 182l111 -111l-182 -182l182 -182l-111 -111l-182 182l-180 -182z" />
<glyph unicode="&#xd8;" horiz-adv-x="1105" d="M98 520v629q0 258 106.5 391t348.5 133q92 0 170 -22l41 151l82 -20l-43 -162q203 -111 203 -471v-631q0 -258 -106.5 -397t-346.5 -139q-109 0 -182 26l-43 -160l-80 25l45 170q-102 61 -148.5 181t-46.5 296zM332 469q-1 -122 24 -188l318 1187q-45 25 -121 25 q-131 0 -176 -72.5t-45 -224.5v-727zM422 197q49 -33 131 -33q129 0 174 75.5t45 229.5v727q0 137 -31 199z" />
<glyph unicode="&#xd9;" horiz-adv-x="1112" d="M115 559v1100h221v-1110q0 -188 44 -286.5t177 -98.5t177 98t44 287v1110h219v-1100q0 -188 -36.5 -313t-133 -194.5t-270.5 -69.5t-271.5 69.5t-134 194.5t-36.5 313zM278 2163h220l116 -406h-108z" />
<glyph unicode="&#xda;" horiz-adv-x="1112" d="M115 559v1100h221v-1110q0 -188 44 -286.5t177 -98.5t177 98t44 287v1110h219v-1100q0 -188 -36.5 -313t-133 -194.5t-270.5 -69.5t-271.5 69.5t-134 194.5t-36.5 313zM500 1757l120 406h220l-230 -406h-110z" />
<glyph unicode="&#xdb;" horiz-adv-x="1112" d="M115 559v1100h221v-1110q0 -188 44 -286.5t177 -98.5t177 98t44 287v1110h219v-1100q0 -188 -36.5 -313t-133 -194.5t-270.5 -69.5t-271.5 69.5t-134 194.5t-36.5 313zM268 1775l176 359h224l178 -359h-166l-125 248l-123 -248h-164z" />
<glyph unicode="&#xdc;" horiz-adv-x="1112" d="M115 559v1100h221v-1110q0 -188 44 -286.5t177 -98.5t177 98t44 287v1110h219v-1100q0 -188 -36.5 -313t-133 -194.5t-270.5 -69.5t-271.5 69.5t-134 194.5t-36.5 313zM270 1907v227h221v-227h-221zM623 1907v227h221v-227h-221z" />
<glyph unicode="&#xdd;" horiz-adv-x="985" d="M25 1659h215l254 -801l249 801h218l-357 -1073v-586h-221v586zM437 1757l120 406h220l-230 -406h-110z" />
<glyph unicode="&#xde;" horiz-adv-x="1030" d="M129 0v1659h231v-217h240q201 0 298 -127t97 -354q0 -483 -434 -484h-201v-477h-231zM360 664h144q141 0 203.5 64.5t62.5 232.5q0 158 -55.5 223t-184.5 65h-170v-585z" />
<glyph unicode="&#xdf;" horiz-adv-x="1054" d="M121 0v1253q0 199 95 311.5t278 112.5q193 0 289 -108.5t96 -317.5q0 -143 -50.5 -232t-152.5 -142q127 -33 195.5 -139.5t68.5 -262.5q0 -242 -115.5 -367.5t-367.5 -125.5v182q106 0 164.5 36t80 102.5t21.5 172.5q0 135 -62.5 214t-187.5 79v182q102 0 146.5 86 t44.5 215q0 119 -35 182.5t-129 63.5q-92 0 -126 -59.5t-34 -182.5v-1255h-219z" />
<glyph unicode="&#xe0;" horiz-adv-x="872" d="M86 258q0 139 59.5 226t151.5 138.5t256 116.5v84q0 117 -23.5 165t-95.5 48q-125 0 -125 -168v-59l-217 8q4 197 90 290t267 93q170 0 246.5 -93t76.5 -282v-540q0 -133 21 -285h-201q-23 117 -29 174q-25 -80 -85 -135t-154 -55q-68 0 -122.5 38.5t-85 102t-30.5 133.5 zM170 1688h220l116 -406h-108zM305 326q0 -74 26.5 -114t78.5 -40q43 0 84 34t59 64v336q-88 -49 -136 -85t-80 -83t-32 -112z" />
<glyph unicode="&#xe1;" horiz-adv-x="872" d="M86 258q0 139 59.5 226t151.5 138.5t256 116.5v84q0 117 -23.5 165t-95.5 48q-125 0 -125 -168v-59l-217 8q4 197 90 290t267 93q170 0 246.5 -93t76.5 -282v-540q0 -133 21 -285h-201q-23 117 -29 174q-25 -80 -85 -135t-154 -55q-68 0 -122.5 38.5t-85 102t-30.5 133.5 zM305 326q0 -74 26.5 -114t78.5 -40q43 0 84 34t59 64v336q-88 -49 -136 -85t-80 -83t-32 -112zM392 1282l120 406h220l-230 -406h-110z" />
<glyph unicode="&#xe2;" horiz-adv-x="872" d="M86 258q0 139 59.5 226t151.5 138.5t256 116.5v84q0 117 -23.5 165t-95.5 48q-125 0 -125 -168v-59l-217 8q4 197 90 290t267 93q170 0 246.5 -93t76.5 -282v-540q0 -133 21 -285h-201q-23 117 -29 174q-25 -80 -85 -135t-154 -55q-68 0 -122.5 38.5t-85 102t-30.5 133.5 zM160 1300l176 359h224l178 -359h-166l-125 248l-123 -248h-164zM305 326q0 -74 26.5 -114t78.5 -40q43 0 84 34t59 64v336q-88 -49 -136 -85t-80 -83t-32 -112z" />
<glyph unicode="&#xe3;" horiz-adv-x="872" d="M86 258q0 139 59.5 226t151.5 138.5t256 116.5v84q0 117 -23.5 165t-95.5 48q-125 0 -125 -168v-59l-217 8q4 197 90 290t267 93q170 0 246.5 -93t76.5 -282v-540q0 -133 21 -285h-201q-23 117 -29 174q-25 -80 -85 -135t-154 -55q-68 0 -122.5 38.5t-85 102t-30.5 133.5 zM142 1450q0 221 164 221q35 0 66.5 -13t72.5 -38t66.5 -36t54.5 -11q37 0 52 19.5t15 66.5h123q0 -104 -33.5 -164.5t-117.5 -60.5q-41 0 -75 14t-77 41q-41 23 -65.5 34t-51.5 11q-37 0 -53 -19.5t-16 -64.5h-125zM305 326q0 -74 26.5 -114t78.5 -40q43 0 84 34t59 64v336 q-88 -49 -136 -85t-80 -83t-32 -112z" />
<glyph unicode="&#xe4;" horiz-adv-x="872" d="M86 258q0 139 59.5 226t151.5 138.5t256 116.5v84q0 117 -23.5 165t-95.5 48q-125 0 -125 -168v-59l-217 8q4 197 90 290t267 93q170 0 246.5 -93t76.5 -282v-540q0 -133 21 -285h-201q-23 117 -29 174q-25 -80 -85 -135t-154 -55q-68 0 -122.5 38.5t-85 102t-30.5 133.5 zM162 1432v227h221v-227h-221zM305 326q0 -74 26.5 -114t78.5 -40q43 0 84 34t59 64v336q-88 -49 -136 -85t-80 -83t-32 -112zM515 1432v227h221v-227h-221z" />
<glyph unicode="&#xe5;" horiz-adv-x="872" d="M86 258q0 139 59.5 226t151.5 138.5t256 116.5v84q0 117 -23.5 165t-95.5 48q-125 0 -125 -168v-59l-217 8q4 197 90 290t267 93q170 0 246.5 -93t76.5 -282v-540q0 -133 21 -285h-201q-23 117 -29 174q-25 -80 -85 -135t-154 -55q-68 0 -122.5 38.5t-85 102t-30.5 133.5 zM220 1450q0 104 62.5 165.5t166.5 61.5t166.5 -61.5t62.5 -165.5t-63.5 -166.5t-165.5 -62.5t-165.5 62.5t-63.5 166.5zM305 326q0 -74 26.5 -114t78.5 -40q43 0 84 34t59 64v336q-88 -49 -136 -85t-80 -83t-32 -112zM330 1450q0 -55 32 -87t87 -32q53 0 86 32t33 87 t-32 87t-87 32t-87 -31t-32 -88z" />
<glyph unicode="&#xe6;" horiz-adv-x="1333" d="M86 258q0 154 80 240t235 129l160 43v153q0 104 -26.5 156.5t-98.5 52.5q-129 0 -129 -194h-217q2 168 93 265t253 97q86 0 145.5 -42t86.5 -111q31 70 105.5 111.5t172.5 41.5q143 0 216 -72.5t73 -199.5q0 -109 -42 -172.5t-106.5 -95t-160.5 -52.5l-146 -30v-261 q0 -74 27 -116.5t94 -42.5q70 0 97.5 53t27.5 149v52h219v-50q0 -182 -77.5 -280t-237.5 -98q-135 0 -201.5 62.5t-85.5 176.5q-57 -240 -274 -239q-139 0 -211 75.5t-72 198.5zM305 305q0 -70 30 -110.5t89 -40.5q137 0 137 196v193l-94 -31q-162 -53 -162 -207zM780 696 l113 27q76 18 108.5 55t32.5 115q0 57 -28.5 93t-92.5 36q-74 0 -103.5 -54.5t-29.5 -154.5v-117z" />
<glyph unicode="&#xe7;" horiz-adv-x="841" d="M88 455v272q0 160 27.5 262.5t103.5 156.5t215 54q127 0 197.5 -41t98.5 -122t28 -210v-69h-199v71q0 117 -25.5 163t-97.5 46q-55 0 -81.5 -24.5t-37 -79.5t-10.5 -162v-373q0 -102 12.5 -156.5t40 -76t78.5 -21.5q76 0 98.5 50.5t22.5 154.5v96h199v-81 q0 -193 -71 -287t-253 -94q-139 0 -215 56t-103.5 157.5t-27.5 257.5zM311 -350q49 -14 105 -15q55 0 90 19.5t35 60.5q0 51 -42 77t-132 38v170h110v-115q102 0 165 -48t63 -128q0 -94 -71 -142t-185 -48q-60 0 -138 20v111z" />
<glyph unicode="&#xe8;" horiz-adv-x="862" d="M88 457v270q0 246 77 359.5t273 113.5q143 0 216 -59.5t96.5 -167t23.5 -289.5v-96h-467v-238q0 -109 32 -157t101 -48q70 0 94.5 48.5t24.5 146.5v72h213v-45q0 -186 -80 -284.5t-254 -98.5q-137 0 -212.5 52t-106.5 154.5t-31 266.5zM153 1688h220l116 -406h-108z M307 707h252v106q0 121 -23.5 173t-99.5 52q-53 0 -80.5 -24.5t-38 -80.5t-10.5 -163v-63z" />
<glyph unicode="&#xe9;" horiz-adv-x="862" d="M88 457v270q0 246 77 359.5t273 113.5q143 0 216 -59.5t96.5 -167t23.5 -289.5v-96h-467v-238q0 -109 32 -157t101 -48q70 0 94.5 48.5t24.5 146.5v72h213v-45q0 -186 -80 -284.5t-254 -98.5q-137 0 -212.5 52t-106.5 154.5t-31 266.5zM307 707h252v106q0 121 -23.5 173 t-99.5 52q-53 0 -80.5 -24.5t-38 -80.5t-10.5 -163v-63zM375 1282l120 406h220l-230 -406h-110z" />
<glyph unicode="&#xea;" horiz-adv-x="862" d="M88 457v270q0 246 77 359.5t273 113.5q143 0 216 -59.5t96.5 -167t23.5 -289.5v-96h-467v-238q0 -109 32 -157t101 -48q70 0 94.5 48.5t24.5 146.5v72h213v-45q0 -186 -80 -284.5t-254 -98.5q-137 0 -212.5 52t-106.5 154.5t-31 266.5zM143 1300l176 359h224l178 -359 h-166l-125 248l-123 -248h-164zM307 707h252v106q0 121 -23.5 173t-99.5 52q-53 0 -80.5 -24.5t-38 -80.5t-10.5 -163v-63z" />
<glyph unicode="&#xeb;" horiz-adv-x="862" d="M88 457v270q0 246 77 359.5t273 113.5q143 0 216 -59.5t96.5 -167t23.5 -289.5v-96h-467v-238q0 -109 32 -157t101 -48q70 0 94.5 48.5t24.5 146.5v72h213v-45q0 -186 -80 -284.5t-254 -98.5q-137 0 -212.5 52t-106.5 154.5t-31 266.5zM145 1432v227h221v-227h-221z M307 707h252v106q0 121 -23.5 173t-99.5 52q-53 0 -80.5 -24.5t-38 -80.5t-10.5 -163v-63zM498 1432v227h221v-227h-221z" />
<glyph unicode="&#xec;" horiz-adv-x="458" d="M-43 1688h220l116 -406h-108zM125 0v1184h219v-1184h-219z" />
<glyph unicode="&#xed;" horiz-adv-x="458" d="M125 0v1184h219v-1184h-219zM179 1282l120 406h220l-230 -406h-110z" />
<glyph unicode="&#xee;" horiz-adv-x="458" d="M-53 1300l176 359h224l178 -359h-166l-125 248l-123 -248h-164zM125 0v1184h219v-1184h-219z" />
<glyph unicode="&#xef;" horiz-adv-x="458" d="M-51 1432v227h221v-227h-221zM125 0v1184h219v-1184h-219zM302 1432v227h221v-227h-221z" />
<glyph unicode="&#xf0;" horiz-adv-x="964" d="M106 461v137q0 258 68 400.5t254 142.5q117 0 199 -74q-18 193 -72 274l-244 -75v110l185 54q-45 51 -122 76.5t-216 27.5l10 143q197 -2 314.5 -48t185.5 -144l237 69v-110l-182 -49q68 -147 98.5 -293t30.5 -330v-287q0 -242 -86 -372.5t-281 -130.5 q-188 0 -283.5 125.5t-95.5 353.5zM326 582q0 -160 10 -247t44 -133t105 -46q84 0 115 73.5t31 219.5v444q-76 68 -148 68q-90 0 -123.5 -89.5t-33.5 -289.5z" />
<glyph unicode="&#xf1;" horiz-adv-x="899" d="M111 0v1184h219v-117q141 133 288 133q96 0 137.5 -69.5t41.5 -172.5v-958h-219v895q0 68 -20.5 100.5t-74.5 32.5q-66 0 -153 -74v-954h-219zM144 1450q0 221 164 221q35 0 66.5 -13t72.5 -38t66.5 -36t54.5 -11q37 0 52 19.5t15 66.5h123q0 -104 -33.5 -164.5 t-117.5 -60.5q-41 0 -75 14t-77 41q-41 23 -65.5 34t-51.5 11q-37 0 -53 -19.5t-16 -64.5h-125z" />
<glyph unicode="&#xf2;" horiz-adv-x="870" d="M90 420v344q0 213 79 324.5t267 111.5q186 0 265 -111.5t79 -324.5v-344q0 -213 -78.5 -324.5t-265.5 -111.5q-188 0 -267 111.5t-79 324.5zM157 1688h220l116 -406h-108zM309 406q0 -88 6.5 -139.5t34 -86.5t86.5 -35q60 0 86.5 35t32.5 86t6 140v370q0 88 -6 140.5 t-32.5 87t-86.5 34.5q-59 0 -86.5 -34.5t-34 -87t-6.5 -140.5v-370z" />
<glyph unicode="&#xf3;" horiz-adv-x="870" d="M90 420v344q0 213 79 324.5t267 111.5q186 0 265 -111.5t79 -324.5v-344q0 -213 -78.5 -324.5t-265.5 -111.5q-188 0 -267 111.5t-79 324.5zM309 406q0 -88 6.5 -139.5t34 -86.5t86.5 -35q60 0 86.5 35t32.5 86t6 140v370q0 88 -6 140.5t-32.5 87t-86.5 34.5 q-59 0 -86.5 -34.5t-34 -87t-6.5 -140.5v-370zM379 1282l120 406h220l-230 -406h-110z" />
<glyph unicode="&#xf4;" horiz-adv-x="870" d="M90 420v344q0 213 79 324.5t267 111.5q186 0 265 -111.5t79 -324.5v-344q0 -213 -78.5 -324.5t-265.5 -111.5q-188 0 -267 111.5t-79 324.5zM147 1300l176 359h224l178 -359h-166l-125 248l-123 -248h-164zM309 406q0 -88 6.5 -139.5t34 -86.5t86.5 -35q60 0 86.5 35 t32.5 86t6 140v370q0 88 -6 140.5t-32.5 87t-86.5 34.5q-59 0 -86.5 -34.5t-34 -87t-6.5 -140.5v-370z" />
<glyph unicode="&#xf5;" horiz-adv-x="870" d="M90 420v344q0 213 79 324.5t267 111.5q186 0 265 -111.5t79 -324.5v-344q0 -213 -78.5 -324.5t-265.5 -111.5q-188 0 -267 111.5t-79 324.5zM129 1450q0 221 164 221q35 0 66.5 -13t72.5 -38t66.5 -36t54.5 -11q37 0 52 19.5t15 66.5h123q0 -104 -33.5 -164.5 t-117.5 -60.5q-41 0 -75 14t-77 41q-41 23 -65.5 34t-51.5 11q-37 0 -53 -19.5t-16 -64.5h-125zM309 406q0 -88 6.5 -139.5t34 -86.5t86.5 -35q60 0 86.5 35t32.5 86t6 140v370q0 88 -6 140.5t-32.5 87t-86.5 34.5q-59 0 -86.5 -34.5t-34 -87t-6.5 -140.5v-370z" />
<glyph unicode="&#xf6;" horiz-adv-x="870" d="M90 420v344q0 213 79 324.5t267 111.5q186 0 265 -111.5t79 -324.5v-344q0 -213 -78.5 -324.5t-265.5 -111.5q-188 0 -267 111.5t-79 324.5zM149 1432v227h221v-227h-221zM309 406q0 -88 6.5 -139.5t34 -86.5t86.5 -35q60 0 86.5 35t32.5 86t6 140v370q0 88 -6 140.5 t-32.5 87t-86.5 34.5q-59 0 -86.5 -34.5t-34 -87t-6.5 -140.5v-370zM502 1432v227h221v-227h-221z" />
<glyph unicode="&#xf7;" horiz-adv-x="708" d="M39 762v160h633v-160h-633zM266 352v228h174v-228h-174zM266 1079v228h174v-228h-174z" />
<glyph unicode="&#xf8;" horiz-adv-x="868" d="M90 420v344q0 213 79 324.5t267 111.5q96 0 168 -33l72 201l76 -25l-80 -221q57 -55 82.5 -144t25.5 -214v-344q0 -213 -78.5 -324.5t-265.5 -111.5q-96 0 -164 30l-75 -209l-66 23l80 223q-121 100 -121 369zM309 334l230 643q-29 61 -103 61q-59 0 -86.5 -34.5t-34 -87 t-6.5 -140.5v-370v-72zM338 197q31 -51 98 -52q59 0 86 35t33 86t6 140v370v39z" />
<glyph unicode="&#xf9;" horiz-adv-x="901" d="M102 225v959h220v-893q0 -68 20 -101.5t74 -33.5q66 0 153 73v955h219v-1184h-219v117q-141 -133 -288 -133q-97 0 -138 69.5t-41 171.5zM172 1688h220l116 -406h-108z" />
<glyph unicode="&#xfa;" horiz-adv-x="901" d="M102 225v959h220v-893q0 -68 20 -101.5t74 -33.5q66 0 153 73v955h219v-1184h-219v117q-141 -133 -288 -133q-97 0 -138 69.5t-41 171.5zM394 1282l120 406h220l-230 -406h-110z" />
<glyph unicode="&#xfb;" horiz-adv-x="901" d="M102 225v959h220v-893q0 -68 20 -101.5t74 -33.5q66 0 153 73v955h219v-1184h-219v117q-141 -133 -288 -133q-97 0 -138 69.5t-41 171.5zM162 1300l176 359h224l178 -359h-166l-125 248l-123 -248h-164z" />
<glyph unicode="&#xfc;" horiz-adv-x="901" d="M102 225v959h220v-893q0 -68 20 -101.5t74 -33.5q66 0 153 73v955h219v-1184h-219v117q-141 -133 -288 -133q-97 0 -138 69.5t-41 171.5zM164 1432v227h221v-227h-221zM517 1432v227h221v-227h-221z" />
<glyph unicode="&#xfd;" horiz-adv-x="802" d="M25 1184h221l160 -885l153 885h221l-282 -1250q-29 -125 -121 -178t-258 -53h-27v168q123 0 169 18.5t46 69.5q0 25 -45 217zM344 1282l120 406h220l-230 -406h-110z" />
<glyph unicode="&#xfe;" horiz-adv-x="915" d="M113 -389v2048h219v-569q96 111 225 110q162 0 216 -138t54 -306v-287q0 -217 -66.5 -351t-228.5 -134q-104 0 -200 104v-477h-219zM332 209q72 -53 157 -53q76 0 97.5 77.5t21.5 235.5v287q0 131 -25.5 201.5t-103.5 70.5q-74 0 -147 -61v-758z" />
<glyph unicode="&#xff;" horiz-adv-x="802" d="M25 1184h221l160 -885l153 885h221l-282 -1250q-29 -125 -121 -178t-258 -53h-27v168q123 0 169 18.5t46 69.5q0 25 -45 217zM114 1432v227h221v-227h-221zM467 1432v227h221v-227h-221z" />
<glyph unicode="&#x152;" horiz-adv-x="1398" d="M98 506v612q0 272 110.5 406.5t364.5 134.5h766v-172h-403v-547h328v-166h-328v-608h407v-166h-753q-182 0 -291 55.5t-155 166t-46 284.5zM332 530q0 -139 17.5 -212.5t72.5 -109.5t172 -36h111v1321h-115q-121 0 -176.5 -46t-68.5 -128t-13 -244v-545z" />
<glyph unicode="&#x153;" horiz-adv-x="1402" d="M117 416v352q0 211 76.5 321.5t259.5 110.5q176 0 249 -139q33 66 102.5 102.5t166.5 36.5q129 0 197.5 -56.5t93 -164t24.5 -283.5v-100h-475v-74q0 -178 25.5 -268t115.5 -90q115 0 115 168v80h219v-78q0 -182 -74.5 -266t-234.5 -84q-102 0 -171 37.5t-104 105.5 q-66 -143 -239 -143q-189 0 -267.5 110.5t-78.5 321.5zM336 416q0 -84 6 -134.5t33.5 -84t87.5 -33.5q59 0 87 33.5t35 84t7 134.5v352q0 84 -7 135t-35 85t-87 34t-86 -34t-34 -85t-7 -135v-352zM811 707h256v63q0 121 -23.5 186.5t-103.5 65.5q-78 0 -103.5 -66.5 t-25.5 -185.5v-63z" />
<glyph unicode="&#x178;" horiz-adv-x="985" d="M25 1659h215l254 -801l249 801h218l-357 -1073v-586h-221v586zM207 1907v227h221v-227h-221zM560 1907v227h221v-227h-221z" />
<glyph unicode="&#x2c6;" horiz-adv-x="702" d="M63 1274l177 385h223l178 -385h-166l-125 274l-123 -274h-164z" />
<glyph unicode="&#x2dc;" horiz-adv-x="868" d="M127 1450q0 227 176 221q37 0 76 -15.5t96 -43.5q29 -14 54.5 -26.5t39.5 -12.5q25 0 36 19.5t11 66.5h123q0 -225 -166 -225q-36 0 -75 15t-92 44q-6 4 -32 16.5t-44.5 18.5t-30.5 6q-25 0 -36 -19.5t-11 -64.5h-125z" />
<glyph unicode="&#x2000;" horiz-adv-x="1081" />
<glyph unicode="&#x2001;" horiz-adv-x="2163" />
<glyph unicode="&#x2002;" horiz-adv-x="1081" />
<glyph unicode="&#x2003;" horiz-adv-x="2163" />
<glyph unicode="&#x2004;" horiz-adv-x="721" />
<glyph unicode="&#x2005;" horiz-adv-x="540" />
<glyph unicode="&#x2006;" horiz-adv-x="360" />
<glyph unicode="&#x2007;" horiz-adv-x="360" />
<glyph unicode="&#x2008;" horiz-adv-x="270" />
<glyph unicode="&#x2009;" horiz-adv-x="432" />
<glyph unicode="&#x200a;" horiz-adv-x="120" />
<glyph unicode="&#x2010;" horiz-adv-x="657" d="M100 535v165h457v-165h-457z" />
<glyph unicode="&#x2011;" horiz-adv-x="657" d="M100 535v165h457v-165h-457z" />
<glyph unicode="&#x2012;" horiz-adv-x="657" d="M100 535v165h457v-165h-457z" />
<glyph unicode="&#x2013;" horiz-adv-x="1011" d="M16 418v166h981v-166h-981z" />
<glyph unicode="&#x2014;" horiz-adv-x="1976" d="M16 551v160h1946v-160h-1946z" />
<glyph unicode="&#x2018;" horiz-adv-x="425" d="M63 1186v198q0 166 47.5 252t155.5 90l39 -79q-61 -6 -85.5 -59.5t-24.5 -172.5h108v-229h-240z" />
<glyph unicode="&#x2019;" horiz-adv-x="425" d="M121 1198q61 4 85.5 57.5t24.5 171.5h-108v232h239v-199q0 -166 -47 -252t-155 -92z" />
<glyph unicode="&#x201a;" horiz-adv-x="425" d="M121 -190q61 4 85.5 57t24.5 172h-108v231h239v-198q0 -166 -47 -252t-155 -92z" />
<glyph unicode="&#x201c;" horiz-adv-x="786" d="M63 1186v198q0 166 47.5 252t155.5 90l39 -79q-61 -6 -85.5 -59.5t-24.5 -172.5h108v-229h-240zM423 1186v198q0 166 47.5 252t155.5 90l39 -79q-61 -6 -85.5 -59.5t-24.5 -172.5h108v-229h-240z" />
<glyph unicode="&#x201d;" horiz-adv-x="786" d="M121 1198q61 4 85.5 57.5t24.5 171.5h-108v232h239v-199q0 -166 -47 -252t-155 -92zM481 1198q61 4 85.5 57.5t24.5 171.5h-108v232h239v-199q0 -166 -47 -252t-155 -92z" />
<glyph unicode="&#x201e;" horiz-adv-x="786" d="M121 -190q61 4 85.5 57t24.5 172h-108v231h239v-198q0 -166 -47 -252t-155 -92zM481 -190q61 4 85.5 57t24.5 172h-108v231h239v-198q0 -166 -47 -252t-155 -92z" />
<glyph unicode="&#x2022;" horiz-adv-x="743" d="M139 799q0 111 61.5 175t170.5 64q111 0 172 -65.5t61 -173.5q0 -113 -61.5 -177.5t-171.5 -64.5q-109 0 -170.5 65.5t-61.5 176.5z" />
<glyph unicode="&#x2026;" horiz-adv-x="1132" d="M78 0v244h221v-244h-221zM459 0v244h221v-244h-221zM838 0v244h221v-244h-221z" />
<glyph unicode="&#x202f;" horiz-adv-x="432" />
<glyph unicode="&#x2039;" horiz-adv-x="563" d="M88 551v106l408 467v-274l-240 -246l240 -248v-272z" />
<glyph unicode="&#x203a;" horiz-adv-x="598" d="M123 190v275l239 248l-239 243v277l405 -467v-109z" />
<glyph unicode="&#x205f;" horiz-adv-x="540" />
<glyph unicode="&#x20ac;" horiz-adv-x="1017" d="M-20 616v121h118v205h-118v123h118v53q0 272 98.5 413.5t348.5 141.5q223 0 320.5 -120.5t97.5 -356.5v-86h-220v72q0 115 -10 176t-52 98t-134 37q-94 0 -140.5 -40t-60.5 -110.5t-14 -189.5v-88h205v-123h-205v-205h205v-121h-205v-120q0 -127 20.5 -199t66.5 -102.5 t128 -30.5q88 0 131 39t54 106.5t11 184.5v77h220v-77q0 -248 -93.5 -380t-324.5 -132q-246 0 -346.5 146t-100.5 404v84h-118z" />
<glyph unicode="&#x2122;" horiz-adv-x="1505" d="M113 1522v137h485v-137h-156v-766h-163v766h-166zM698 756v903h152l194 -629l211 629h138v-903h-127v557l-183 -557h-67l-189 555v-555h-129z" />
<glyph unicode="&#x25fc;" horiz-adv-x="1187" d="M0 0v1188h1188v-1188h-1188z" />
<glyph unicode="&#xfb03;" horiz-adv-x="1507" d="M39 1022v162h141v61q0 123 18.5 198t75 115.5t162.5 40.5q80 0 144 -14v-160q-41 10 -82 11q-59 0 -79 -38t-20 -116v-98h275v61q0 123 18.5 198t74.5 115.5t163 40.5q78 0 141 -14v-160q-41 10 -82 11q-59 0 -78.5 -38t-19.5 -116v-98h491v-1184h-217v1022h-274v-1022 h-217v1022h-275v-1022h-219v1022h-141zM1165 1360v229h219v-229h-219z" />
<glyph unicode="&#xfb04;" horiz-adv-x="1589" d="M39 1022v162h141v61q0 123 18.5 198t75 115.5t162.5 40.5q74 0 144 -14v-160q-41 10 -82 11q-59 0 -79 -38t-20 -116v-98h316v61q0 117 20.5 198t103.5 139t255 58q147 0 376 -51v-1589h-219v1468q-66 8 -125 9q-90 0 -131 -28t-51 -72t-10 -128v-65h180v-162h-180v-1022 h-219v1022h-316v-1022h-219v1022h-141z" />
</font>
</defs>
</svg>
